OnlyFans- Cade Maddox Fucks Cristiano Bareback

Bareback
You need to Login or Signup first.
Content synopsis - Cade Maddox fucks Cristiano bareback in an outdoor scene. While having this serene environment the two keep the aesthetic of the production which is total demolition. Cade stretches and destroys Cristiano's hole almost to the point of extinction lol. Well sit back and enjoy this erotic experience you know what no don't sit back try and integrate yourself in the mind blowing action. Toodles enjoy.
Cast- Cade Maddox, Cristiano
Director- Cade Maddox
Studio(s), Label(s) and/or Distributor(s)- OnlyFans
Release Date or Year- June 11, 2021
Runtime- 25:07
Technical Information about Video File(s):
Format                                  : MPEG-4
Format profile                          : Base Media
Codec ID                                : isom (isom/iso2/avc1/mp41)
File size                                : 2.06 GiB
Duration                                : 47 min 44 s
Overall bit rate mode                    : Constant
Overall bit rate                        : 6 167 kb/s
Writing application                      : Lavf58.29.100

Video
ID                                      : 1
Format                                  : AVC
Format/Info                              : Advanced Video Codec
Format profile                          : High@L4
Format settings                          : CABAC / 3 Ref Frames
Format settings, CABAC                  : Yes
Format settings, Reference frames        : 3 frames
Format settings, GOP                    : M=2, N=48
Codec ID                                : avc1
Codec ID/Info                            : Advanced Video Coding
Duration                                : 47 min 44 s
Bit rate mode                            : Constant
Bit rate                                : 6 000 kb/s
Width                                    : 1 920 pixels
Height                                  : 1 080 pixels
Display aspect ratio                    : 16:9
Frame rate mode                          : Constant
Frame rate                              : 23.976 (24000/1001) FPS
Color space                              : YUV
Chroma subsampling                      : 4:2:0
Bit depth                                : 8 bits
Scan type                                : Progressive
Bits/(Pixel*Frame)                      : 0.121
Stream size                              : 2.00 GiB (97%)
Codec configuration box                  : avcC

Audio
ID                                      : 2
Format                                  : AAC LC
Format/Info                              : Advanced Audio Codec Low Complexity
Codec ID                                : mp4a-40-2
Duration                                : 47 min 44 s
Bit rate mode                            : Constant
Bit rate                                : 160 kb/s
Channel(s)                              : 2 channels
Channel layout                          : L R
Sampling rate                            : 48.0 kHz
Frame rate                              : 46.875 FPS (1024 SPF)
Compression mode                        : Lossy
Stream size                              : 54.6 MiB (3%)
Language                                : English
Default                                  : Yes
Alternate group                          : 1

~onlyfans ~cade maddox ~demolition ~anal ~hardcore ~oral ~hunk ~jock ~fansite ~rough
2021-06-11 19:43:55
2.06 GB (2,208,140,516 bytes)
2438
1 files