StraightHell - Ricardo

Clips
You need to Login or Signup first.
Original added on 2008-02-12 20:04:57 by unknown
----

Bottom: Ricardo      Age: 20      Occupation: Waiter      Body type: Slim
Topped by: Adrian and Jake
Original clips posted on StraightHell.com from 12/5/2007 - 1/30/2008
Format: WMV
File size: 585 MiB
Duration: 1h 18mn
Overall bit rate mode: Constant
Overall bit rate: 1040 Kbps
Maximum Overall bit rate: 1044 Kbps

Description from hxxp://www.straighthell.net/ricardo.php
    Ricardo thinks we run a language school. The innocent little lad has no idea that 'Oral Basic' is going to involve him servicing both our dicks.
    Ricardo suffers nipple torture, gags, anal hooking, fingering, throatfucking, spanking, spitroasting, cbt and flogging.
    The set up:
    Our 'Free English Lessons' snare a shy little Spanish lad...
    Handing out flyers advertising freebies obviously attracts a wide variety of cute student types. But we never dreamt we'd lure a specimen as sexy as Ricardo.
    Small and olive skinned, with mischevious eyes and a mop of floppy black hair, Ricardo looks so innocent, we actually have to ask his age to check he's legal! I take advantage of his youthful naiivety by getting a nice grope of his tight little arse as I pretend to warn him about pickpockets.
    The promise of learning English, and being able to chat up girls, has this naive young man following us back to our car like an obedient puppy.

1.39 GiB version (individual clips plus photos, 21 files) at http://tracker.gaytorrent.ru/details.php?id=82233

Video
Format: WMV1
Bit rate mode: Constant
Bit rate: 1 000 Kbps
Width: 960 pixels
Height: 540 pixels
Display aspect ratio: 16:9
Frame rate: 25.000 fps
Bit depth: 8 bits
Bits/(Pixel*Frame): 0.077
Stream size: 563 MiB (96%)

Audio
Format: WMA
Bit rate mode: Constant
Bit rate: 32.0 Kbps
Channel(s): 2 channels
Sampling rate: 32.0 KHz
Bit depth: 16 bits
Stream size: 18.0 MiB (3%)

~anal ~bdsm ~fetish ~latinos ~mature ~oral-sex ~twinks ~average ~beefy ~bondage ~cbt ~crying ~cute ~deep-throating ~dildos ~facials ~fingering ~gagging ~grown-men ~hairless ~hairy ~international ~oral ~paddling ~rape ~regular-build ~ruffnecks ~safe-sex ~slim ~spanking ~toilet ~tough ~trashy ~uncuts
2011-03-17 08:48:59
585.31 MB (613,745,592 bytes)
3844
1 files