SEVP - Scouts Honor (mp4)

Bareback
You need to Login or Signup first.
DESCRIPTION
Scout's Honor: 2 hours of the hottest sex ever caught on film! A massive orgy scene, 2 trios, over 20 fantastic cumshots, and a whole lot more!

CAST
Andrew Shut, Daniel Nicolaus, Enrico Mexx, John Flunnery, Johny Lee, Kube Adams, Marco Solero, Peter King, Rony Dack, Rony Kluk, Tomas Adamec

FULL SIZE DVD TO COME LATER, 6.55Gb

General
Complete name                            : E:uTorrentSevp - Scouts Honor.mp4
Format                                  : MPEG-4
Format profile                          : Base Media
Codec ID                                : isom
File size                                : 1.35 GiB
Duration                                : 1h 58mn
Overall bit rate                        : 1 630 Kbps
Writing application                      : Lavf53.24.2

Video
ID                                      : 1
Format                                  : AVC
Format/Info                              : Advanced Video Codec
Format profile                          : [email protected]
Format settings, CABAC                  : No
Format settings, ReFrames                : 2 frames
Format settings, GOP                    : M=1, N=12
Codec ID                                : avc1
Codec ID/Info                            : Advanced Video Coding
Duration                                : 1h 58mn
Bit rate                                : 1 495 Kbps
Width                                    : 640 pixels
Height                                  : 480 pixels
Display aspect ratio                    : 4:3
Frame rate mode                          : Constant
Frame rate                              : 30.000 fps
Standard                                : NTSC
Color space                              : YUV
Chroma subsampling                      : 4:2:0
Bit depth                                : 8 bits
Scan type                                : Progressive
Bits/(Pixel*Frame)                      : 0.162
Stream size                              : 1.24 GiB (92%)
Language                                : English
Color primaries                          : BT.601 NTSC
Transfer characteristics                : BT.601
Matrix coefficients                      : BT.601

Audio
ID                                      : 2
Format                                  : AAC
Format/Info                              : Advanced Audio Codec
Format profile                          : LC
Codec ID                                : 40
Duration                                : 1h 58mn
Bit rate mode                            : Constant
Bit rate                                : 128 Kbps
Channel(s)                              : 2 channels
Channel positions                        : Front: L R
Sampling rate                            : 44.1 KHz
Compression mode                        : Lossy
Stream size                              : 109 MiB (8%)
Language                                : English
2013-08-12 06:02:26
1.35 GB (1,449,905,424 bytes)
4
1 files